请选择 进入手机版 | 继续访问电脑版
“最忆是杭州”G20峰会文艺晚会高清1080P完整版 无台标
本帖最后由 浪漫飞扬 于 2016-9-6 00:43 编辑

       2016中国杭州G20峰会“最忆是杭州”文艺演出是2016年9月4日,在杭州西湖岳湖景区内,为二十国集团(G20)领导人杭州峰会呈上的大型水上情景表演交响音乐会。这是国内首次在户外的水上舞台举办大型交响音乐会,9个节目,总时长50分钟

此次演出由著名导演张艺谋亲自执导,舞台设置于水下3厘米处,演出节目包括交响乐、舞蹈、越剧、古琴大提琴合奏、钢琴独奏等,中西合璧、美轮美奂。


21f556c37932a30cs.png

85ff0c4bc33f9dc1s.png

617b315a26162b50s.png

abbb18436b45f783s.png

d2d8437f368269c2s.png

General
Complete name                    : G20峰会文艺晚会.2016.HD1080P.X264.AAC.Mandarin.CHS.Mp4Ba.mp4
Format                           : MPEG-4
Format profile                   : Base Media
Codec ID                         : isom
File size                        : 2.86 GiB
Duration                         : 57mn 48s
Overall bit rate                 : 7 094 Kbps
Encoded date                     : UTC 2016-09-05 11:04:56
Tagged date                      : UTC 2016-09-05 11:04:56

Video
ID                               : 1
Format                           : AVC
Format/Info                      : Advanced Video Codec
Format profile                   : High@L4.1
Format settings, CABAC           : Yes
Format settings, ReFrames        : 4 frames
Codec ID                         : avc1
Codec ID/Info                    : Advanced Video Coding
Duration                         : 57mn 48s
Bit rate mode                    : Variable
Bit rate                         : 6 772 Kbps
Maximum bit rate                 : 30.2 Mbps
Width                            : 1 920 pixels
Height                           : 1 080 pixels
Display aspect ratio             : 16:9
Frame rate mode                  : Constant
Frame rate                       : 25.000 fps
Color space                      : YUV
Chroma subsampling               : 4:2:0
Bit depth                        : 8 bits
Scan type                        : Progressive
Bits/(Pixel*Frame)               : 0.131
Stream size                      : 2.73 GiB (95%)
Title                            : 264:fps=25.0@GPAC0.5.1-DEV-rev4929
Encoded date                     : UTC 2016-09-05 11:04:56
Tagged date                      : UTC 2016-09-05 11:05:06

Audio
ID                               : 2
Format                           : AAC
Format/Info                      : Advanced Audio Codec
Format profile                   : LC
Codec ID                         : 40
Duration                         : 57mn 48s
Bit rate mode                    : Variable
Bit rate                         : 318 Kbps
Maximum bit rate                 : 433 Kbps
Channel(s)                       : 2 channels
Channel positions                : Front: L R
Sampling rate                    : 48.0 KHz
Compression mode                 : Lossy
Stream size                      : 132 MiB (4%)
Encoded date                     : UTC 2016-09-05 10:51:00
Tagged date                      : UTC 2016-09-05 11:05:06

游客,如果您要查看本帖隐藏内容请回复
最新评论
13条评论 | 只看楼主 |
浪漫飞扬  楼主| 发表于 2016-9-6 00:13:28 | 显示全部楼层
本帖最后由 浪漫飞扬 于 2016-9-6 00:18 编辑

自己抢沙发!!!2B 给整个精华!!不好找没台标的!!
回复 | 支持 | 反对

忧郁世界 发表于 2016-9-6 11:29:27 | 显示全部楼层
啪啪啪。这个不错哦
回复 | 支持 | 反对

tulip 发表于 2016-9-6 11:31:12 | 显示全部楼层
中国越来越强大了,我骄傲!感谢楼主分享。
回复 | 支持 | 反对

回头是俺 发表于 2016-9-6 11:31:57 | 显示全部楼层
回复 |

hbsnlzm 发表于 2016-9-7 09:58:53 | 显示全部楼层
这个不错哦
回复 | 支持 | 反对

sonpia 发表于 2016-11-14 20:27:16 | 显示全部楼层
回复 |

我爱BFTV 发表于 2016-12-7 10:17:40 | 显示全部楼层
强烈支持一下啊!
回复 | 支持 | 反对

天天想你 发表于 2016-12-10 18:03:42 | 显示全部楼层
说着说着太好了
回复 | 支持 | 反对

danzise1 发表于 2017-1-11 21:13:48 | 显示全部楼层
求资源aaaaaaaaaaa
回复 | 支持 | 反对

12下一页
您需要登录后才可以回帖 登录 | 立即注册

本版积分规则

快速回复 返回顶部 返回列表